--SNACH--

The Murder of Fred Hampton (1971)


Program Info:
From the back of the dvd:
THE MURDER OF FRED HAMPTON began as a film portrait of Hampton and the Illinois Black Panther Party, but half way through the shoot, Hampton was murdered. In an infamous moment in Chicago history and politics, over a dozen policeman burst into Hampton's apartment while its occupants were sleeping, killing Hampton and fellow Panther Mark Clark and brutalizing the other occupants. Filmmakers Mike Gray and Howard Alk arrived a few hours later to shoot film footage of the crime scene that was later used to contradict news reports and police testimony. Recently restored and reworked by Gray, THE MURDER OF FRED HAMPTON is a chilling slice of American history.

U.S./1971/Black & White/Fullscreen/88mins./English. All-Zone NTSC DVD

Directors: Mike Gray, Howard Alk

Studio: FACETS - Facets Multimedia

DVD Release Date: May 22, 2007

2007 Chicago Doc Classic Award - Chicago International Documentary Festival
****"...political dynamite..." - Roger Ebert, Chicago Sun-Times
"...an example of the power of independent media in providing the truth..." - David Walker, Willamette Week Online


Video Info:
The.Murder.of.Fred.Hampton.1971.DVDrip.xvid.mp3-snach.avi

Format : AVI
Format/Info : Audio Video Interleave
File size : 701 MiB
Duration : 1h 28mn
Overall bit rate : 1 102 Kbps
Movie name : THEMURDEROFFREDHAMPTON
Director : Howard Alk
Genre : Documentary
Writing application : MEncoder MasterSoft for Vista
Writing library : Sog Dvd Ripper

Video
Format : MPEG-4 Visual
Format profile : Simple@L3
Format settings, BVOP : No
Format settings, QPel : No
Format settings, GMC : No warppoints
Format settings, Matrix : Default (H.263)
Codec ID : XVID
Codec ID/Hint : XviD
Duration : 1h 28mn
Bit rate : 960 Kbps
Width : 592 pixels
Height : 448 pixels
Display aspect ratio : 4/3
Frame rate : 29.970 fps
Resolution : 24 bits
Colorimetry : 4:2:0
Scan type : Progressive
Bits/(Pixel*Frame) : 0.121
Stream size : 611 MiB (87%)
Writing library : XviD 1.1.2 (UTC 2006-11-01)

Audio
Format : MPEG Audio
Format version : Version 1
Format profile : Layer 3
Codec ID : 55
Codec ID/Hint : MP3
Duration : 1h 28mn
Bit rate mode : Constant
Bit rate : 128 Kbps
Channel(s) : 2 channels
Sampling rate : 48.0 KHz
Resolution : 16 bits
Stream size : 81.5 MiB (12%)
Alignment : Aligned on interleaves
Interleave, duration : 24 ms (0.72 video frame)
Interleave, preload duration : 504 ms
Writing library : LAME3.97

get the torrent here -The Murder of Fred Hampton 1971 h33t snach torrent download - Fenopy.com

or get both parts here:

part1
MEGAUPLOAD - The leading online storage and file delivery service

part2
MEGAUPLOAD - The leading online storage and file delivery service